<?xml version="1.0" standalone="no"?>
<!DOCTYPE svg PUBLIC "-//W3C//DTD SVG 1.1//EN" "https://www.w3.org/Graphics/SVG/1.1/DTD/svg11.dtd" >
<svg xmlns="https://www.w3.org/2000/svg">
<metadata></metadata>
<defs>
<font id="automatticonsregular" horiz-adv-x="2048" >
<font-face units-per-em="2048" ascent="1638" descent="-410" />
<missing-glyph horiz-adv-x="1200" />
<glyph />
<glyph />
<glyph unicode="&#xd;" />
<glyph unicode=" "  horiz-adv-x="1200" />
<glyph unicode="&#x09;" horiz-adv-x="1200" />
<glyph unicode="&#xa0;" horiz-adv-x="1200" />
<glyph unicode="." d="M24 1100l1000 -1000l1000 1000h-2000z" />
<glyph unicode="@" d="M24 -8q48 -6 100 -6q281 0 508 176q-133 1 -238.5 81t-145.5 203q39 -6 78 -6q60 0 108 14q-142 29 -236 142t-94 260v6q86 -49 186 -52q-84 57 -133 146.5t-49 195.5q0 110 56 206q154 -189 374 -303t472 -127q-12 45 -12 94q0 111 55 205.5t149.5 149.5t205.5 55 q87 0 165 -34t135 -94q142 27 260 100q-46 -149 -182 -228q123 14 238 64q-82 -124 -206 -212q2 -18 2 -54q0 -117 -24.5 -235.5t-75 -233t-122 -218t-170 -191t-214 -152t-260 -100.5t-302.5 -36q-344 0 -628 184z" />
<glyph unicode="A" horiz-adv-x="12288" d="M128 356h176l110 220h492l92 -220h176l-458 852h-118zM460 692l186 342l198 -342h-384zM1458 716q0 -174 112.5 -279t337.5 -105q116 0 204 30t140.5 83.5t78 121.5t25.5 149v492h-162v-492q0 -129 -63.5 -197.5t-208.5 -68.5q-147 0 -230.5 71.5t-83.5 194.5v492h-150 v-492zM2710 1056h364v-700h150v700h378v152h-892v-152zM3904 772q0 -82 35 -161t96.5 -141t153 -100t195.5 -38q107 0 199.5 38t153 100.5t95 141t34.5 160.5v24q0 85 -34.5 165t-95 142.5t-152.5 100.5t-200 38q-105 0 -196 -38t-152.5 -100.5t-96.5 -142.5t-35 -165v-24z M4048 784v12q0 125 90.5 216.5t245.5 91.5q82 0 147.5 -26t104.5 -70t59.5 -98t20.5 -114v-12q0 -147 -84.5 -240.5t-247.5 -93.5q-158 0 -247 95t-89 239zM4251 671q0 -15 10 -34q11 -21 33 -37q7 -12 28 -1t30 35l150 224q15 19 10 42t-24 42q-24 10 -46 4.5t-22 -28.5 l-164 -214q-5 -18 -5 -33zM5278 356h152v666l46 -70l330 -596h92l342 596l46 70v-666h164v852h-222l-318 -588l-46 -66l-46 66l-320 588h-220v-852zM6756 356h186l92 220h504l104 -220h160l-448 852h-140zM7092 692l180 342l186 -342h-366zM7928 1056h366v-700h152v700h376 v152h-894v-152zM9076 1056h364v-700h164v700h386v152h-914v-152zM10370 356h160v852h-80q0 -43 -19 -62.5t-61 -19.5v-770zM10908 772q0 -88 37 -167t104 -140t170.5 -97t228.5 -36q237 0 440 164l-104 90q-55 -39 -94.5 -62.5t-108.5 -48.5t-133 -25q-179 0 -277.5 92.5 t-98.5 229.5v12q0 134 98.5 227t277.5 93q170 0 326 -152l114 104q-206 186 -440 186q-116 0 -218.5 -38t-172 -100.5t-109.5 -142.5t-40 -165v-24z" />
<glyph unicode="C" d="M0 402v286q0 8 2.5 17.5t5.5 14.5l2 6l16 28q6 13 0 26l-16 28q-10 18 -10 38v284q0 28 16.5 52t41.5 30l914 378q27 10 54 10q29 0 52 -10l912 -374q26 -9 42 -33.5t16 -52.5v-284q0 -9 -2.5 -18.5t-5.5 -14.5l-2 -5l-16 -28q-6 -13 0 -26l16 -28q10 -20 10 -38v-286 q0 -27 -16 -51t-42 -33l-912 -374q-23 -10 -52 -10q-27 0 -54 10l-914 374q-25 9 -41.5 33.5t-16.5 50.5zM236 574q0 -42 24 -70t56 -28q36 0 59 27.5t23 70.5v90q0 7 -6 13.5t-14 6.5h-24v-120q0 -15 -9.5 -25.5t-24.5 -10.5t-24.5 10.5t-9.5 25.5v406q0 15 9.5 25.5 t24.5 10.5t24.5 -10.5t9.5 -25.5v-116h24q20 0 20 20v84q0 43 -23 70.5t-59 27.5q-32 0 -56 -28t-24 -70v-384zM256 568v398q0 30 18 50t46 20t45 -19.5t17 -50.5v-88q0 -8 -8 -8h-6v96q0 24 -13.5 41t-34.5 17q-22 0 -36 -17t-14 -41v-398q0 -25 13.5 -40.5t36.5 -15.5 q21 0 34.5 15.5t13.5 40.5v96h10h4v-4v-4v-88q0 -31 -17 -51.5t-45 -20.5t-46 21t-18 51zM432 574q0 -43 25.5 -70.5t60.5 -27.5q37 0 61.5 27.5t24.5 70.5v384q0 43 -24.5 70.5t-61.5 27.5q-35 0 -60.5 -27.5t-25.5 -70.5v-384zM452 568v398q0 30 19 50t47 20 q27 0 45.5 -20t18.5 -50v-398q0 -30 -18.5 -51t-45.5 -21q-28 0 -47 21t-19 51zM468 568q0 -25 13.5 -40.5t36.5 -15.5t36.5 15.5t13.5 40.5v398q0 24 -14 41t-36 17t-36 -17t-14 -41v-398zM480 294h4l4 -4h288l34 -24v6q0 4 -2 7t-4 4l-2 1l-16 12l16 14q8 4 8 12v8 l-34 -28h-296v-8zM484 564v406q0 15 9.5 25.5t24.5 10.5t24.5 -10.5t9.5 -25.5v-406q0 -15 -9.5 -25.5t-24.5 -10.5t-24.5 10.5t-9.5 25.5zM592 1220h256v-28q0 -11 8 -16l58 -34h12h8l58 34q12 6 12 16v28h42v-28q0 -4 12 -16l60 -34h6h12l58 34q8 5 8 16v28h256v10l-4 4 h-252v28q0 11 -8 16l-58 34q-12 6 -18 0l-26 -18l-22 30l24 12q8 8 8 16v68q0 10 -8 18l-60 34q-3 3 -9 3t-9 -3l-60 -34q-6 -6 -6 -18v-68q0 -10 6 -16l24 -12l-22 -30l-24 18q-7 7 -20 0l-58 -34q-8 -5 -8 -16v-28h-252l-4 -4v-10zM636 504q0 -8 7 -14t17 -6h60 q43 0 62.5 27t19.5 83v344q0 58 -19.5 85t-62.5 27h-60q-10 0 -17 -6t-7 -14v-526zM658 508v4v514l2 4h60q34 0 48 -21t14 -67v-352q0 -47 -14 -66.5t-48 -19.5h-60v4h-2zM670 516h50q27 0 37.5 17t10.5 57v352q0 41 -10.5 57.5t-37.5 16.5h-50v-500zM690 534v464h30 q18 0 25 -11t7 -39v-362q0 -29 -7 -40.5t-25 -11.5h-30zM836 504q0 -8 7.5 -14t16.5 -6h96q8 0 14 6t6 14v28h-84v220h38q22 0 22 20v28h-60v202h84v28q0 8 -6 14t-14 6h-96q-9 0 -16.5 -6t-7.5 -14v-526zM850 268h38v8h-28v20h24v6h-24v20h28v4h-38v-58zM856 504v4v518 q0 4 4 4l4 4h86l2 -4l4 -4v-6h-84v-238h58v-6q0 -8 -4 -8h-54v-254h84v-6l-4 -4l-2 -4h-90v4h-4zM860 1192v70q0 4 4 4l58 32l4 4q4 0 4 -4l22 -14l-22 -34h-4q-24 0 -24 -24q0 -22 24 -22q18 0 24 16h38v-28q0 -4 -2 -4l-56 -32q-8 -8 -8 0l-58 32zM902 280q0 -12 8 -12h20 q8 0 8 12v10q0 10 -8 10q-8 2 -16 2q-6 6 -6 8v8q2 4 6 4h12l4 -4v-8h8v8q0 8 -8 8h-20q-8 0 -8 -8v-12q0 -5 8 -10q8 0 16 -2l4 -4v-10q0 -4 -4 -4h-16l-2 4v6h-6v-6zM942 1244l24 34l20 -12q2 0 2 -4v-28h-38q-2 2 -4 5t-4 5zM950 322h16v-54h10v54h16v4h-42v-4zM962 1348 v76l62 32q0 4 2 4v-4l62 -32l4 -4v-68l-4 -4l-24 -12l-20 34q0 2 3 7t3 9q0 10 -7.5 17t-16.5 7q-11 0 -18.5 -7t-7.5 -17q0 -4 8 -16l-22 -34zM972 1288l16 32l28 -18h10h8l28 18l16 -32l-20 -10q-12 -12 -12 -16v-28h-42v28q0 10 -12 16zM986 268h10v12h-10v-12zM996 1328 l24 34h6h8l20 -34l-28 -12q0 -3 -1 -3t-1 3zM1030 268h34v8h-24v10q0 4 4 4q4 2 8.5 4t5.5 2q6 4 6 10v12q0 8 -6 8h-18q-2 0 -6 -2.5t-4 -5.5v-4l10 -4v8q0 4 4 4h10q4 0 4 -4v-12q0 -4 -4 -4q-8 -2 -14 -6q-10 0 -10 -6v-22zM1062 1192v28h40q1 -7 8 -11.5t14 -4.5 q24 0 24 22q0 24 -24 24h-6l-20 34l24 14l2 4q4 0 4 -4l58 -32q4 0 4 -4v-70q0 -4 -4 -4l-58 -32q0 -3 -2 -3t-4 3l-58 32zM1062 1234v28l2 4l20 12l24 -34q-2 -2 -6 -10h-40zM1082 280q0 -12 10 -12h12q12 0 12 12v38q0 8 -12 8h-12q-10 0 -10 -8v-38zM1088 280v38l4 4h12 q4 0 4 -4v-38l-4 -4h-12q-4 0 -4 4zM1094 504q0 -8 6.5 -14t15.5 -6h30v242h34q30 0 52 22t22 72v142q0 88 -74 88h-64q-9 0 -15.5 -6t-6.5 -14v-526zM1112 508v516l4 2l2 4h62q54 0 54 -68v-146q0 -68 -54 -68h-56v-248h-6q-6 0 -6 8zM1124 314l16 8v-54h8v58h-8l-16 -4v-8 zM1124 762h56q44 0 44 54v146q0 54 -44 54h-56v-254zM1146 780v218h34q22 0 22 -32v-158q0 -28 -22 -28h-34zM1166 268h34v8h-28v10l4 4q4 2 18 6q6 6 6 10v12q0 8 -10 8h-18q-6 0 -6 -8v-4l6 -4v8l4 4h10q4 0 4 -4v-12q0 -4 -4 -4l-14 -6q-6 0 -6 -6v-22zM1240 266l38 24 h286l2 4h4v2v6h-292l-38 28v-8q0 -4 2 -7t4 -4l2 -1l20 -14l-20 -12q-8 -4 -8 -12v-6zM1292 574q0 -42 24 -70t56 -28q37 0 61.5 27.5t24.5 70.5v384q0 43 -24.5 70.5t-61.5 27.5q-32 0 -56 -28t-24 -70v-384zM1308 568v398q0 30 19 50t45 20q30 0 50 -20t20 -50v-398 q0 -31 -19.5 -51.5t-50.5 -20.5q-28 0 -46 21t-18 51zM1322 568q0 -25 15 -40.5t35 -15.5q24 0 40 15.5t16 40.5v398q0 24 -16 41t-40 17q-20 0 -35 -17t-15 -41v-398zM1342 564v406q0 15 8.5 25.5t21.5 10.5q15 0 25.5 -10.5t10.5 -25.5v-406q0 -15 -10.5 -25.5 t-25.5 -10.5q-13 0 -21.5 10.5t-8.5 25.5zM1496 504q0 -8 6 -14t14 -6h94q20 0 20 20v28h-84v220h40q20 0 20 20v28h-60v202h84v28q0 20 -20 20h-94q-8 0 -14 -6t-6 -14v-526zM1512 508v518l4 4l4 4h84l2 -4l4 -4v-6h-84v-238h60v-6q0 -8 -6 -8h-54v-254h84v-6q0 -4 -4 -4 l-2 -4h-84l-4 4zM1658 1002h54v-498q0 -8 6.5 -14t15.5 -6h30v518h52v28q0 7 -7 13.5t-15 6.5h-114q-22 0 -22 -20v-28zM1680 1020v6q0 4 2 4q0 4 2 4h104q0 -4 4 -4v-10h-50v-520h-4q-8 0 -8 8v512h-50z" />
<glyph unicode="F" d="M24 -286q0 -46 34 -80t80 -34h1772q46 0 80 34t34 80v1772q0 46 -34 80t-80 34h-1772q-46 0 -80 -34t-34 -80v-1772zM972 478v264h194v228q0 68 23 128t67.5 108t119 76t170.5 28q48 0 94.5 -2.5t69.5 -5.5l22 -2l-4 -248q-82 2 -170 2q-67 0 -89.5 -28.5t-22.5 -89.5 v-194h288l-12 -264h-276v-736h-280v736h-194z" />
<glyph unicode="G" d="M134 708q0 183 68 345.5t190 284.5q54 52 129 52t127 -52q50 -52 50 -125t-50 -127q-74 -73 -116 -171.5t-42 -206.5q0 -109 42 -208t113.5 -170.5t170.5 -113.5t208 -42q147 0 270.5 71t195.5 194t72 269q0 173 -99 311.5t-257 194.5v-416q0 -75 -53.5 -126.5 t-128.5 -51.5q-74 0 -126 51.5t-52 126.5v624q0 74 52 126t126 52q182 0 347.5 -70.5t284.5 -190.5t189.5 -285t70.5 -346q0 -182 -70.5 -347.5t-189.5 -285t-284.5 -190.5t-347.5 -71q-181 0 -345.5 71t-284 190.5t-190 285t-70.5 347.5z" />
<glyph unicode="I" d="M0 26v934q146 30 216.5 53.5t103.5 56.5q16 20 32 54t24 58l8 24q3 -3 6.5 -9t14 -24.5t15 -35.5t8.5 -42.5t-6 -44.5q-6 -12 -11 -20.5t-8.5 -15.5t-9.5 -14t-8 -11t-9.5 -9.5t-10 -8t-12.5 -9t-13.5 -8.5t-17.5 -10.5t-20 -11.5q-48 -40 -48 -91v-7q4 -55 48 -86 q17 -11 33 -11q21 1 41 19q36 34 82 122q17 34 26.5 79.5t13.5 78t25.5 72t62.5 70.5q31 24 70 30q29 4 56 5q10 0 20 -1q11 -1 22 -1q28 0 58 4q42 5 92.5 38.5t101.5 100.5q38 47 81 74t83 33q24 4 47 3q16 0 31 -1q39 -4 70.5 -16.5t56 -25.5t37.5 -23l14 -10 q-6 2 -15.5 6t-38.5 12q-30 8 -58 12q-15 2 -33 1q-15 0 -32 -1q-37 -3 -68.5 -16.5t-61.5 -44t-49 -77.5q-19 -43 -35.5 -75t-29.5 -54t-29 -38t-27 -25t-30 -16t-31.5 -10t-38 -9t-43.5 -11q-60 -16 -77 -69q-5 -16 -5 -30q0 -29 21 -52q22 -24 55 -24q28 0 65 18 q10 5 21 11q59 37 93.5 77.5t46 69t39.5 61t77 56.5q69 32 131 43.5t126 14t99 8.5q304 41 384 174q34 52 53 102t21 74l2 24q2 -6 4 -17.5t7 -45.5q4 -30 4 -60q-1 -4 -1 -7q0 -33 -10.5 -78.5t-30.5 -84.5t-59.5 -79t-95.5 -68q-94 -49 -166 -76t-106 -32t-74 -15t-78 -31 q-107 -58 -107 -146q0 -43 25 -92q36 -62 97 -68q6 -1 12 -1q55 0 111 49q33 29 51.5 72.5t20.5 72.5l2 29q3 -7 7 -19.5t11 -48.5q8 -38 8 -71t-13 -72q-13 -41 -41 -71q-56 -60 -94 -84t-92 -25h-4q-54 0 -138 27q-78 22 -135 26q-20 1 -36 1q-31 -1 -49 -5 q-28 -6 -54 -22q-46 -22 -70 -64q-13 -23 -13 -43q0 -17 9 -31q14 -25 31.5 -35.5t48.5 -5.5t74 31q60 33 102 44.5t100 11.5q122 0 218 -56q25 -16 53 -39t43 -38l16 -15q-9 5 -24.5 13t-61.5 21q-44 14 -86 16q-5 0 -11 1q-38 0 -83 -16q-52 -18 -90 -61 q-74 -82 -122 -114q-46 -31 -79 -31q-1 1 -3 1q-34 2 -90 26q-84 34 -126 46q-12 -18 -12 -56q0 -16 5 -30t10 -20l5 -6q36 0 54 -8q92 0 128 -64q12 -25 17 -50t4 -38l-1 -12q-4 3 -11.5 8.5t-31 17t-47 18t-57 6t-63.5 -13.5q-50 -20 -86 -65.5t-42 -98.5h-424 q-87 0 -152.5 65t-65.5 153z" />
<glyph unicode="J" d="M305 433q0 152 21 325.5t62 315.5q54 193 138 398q2 4 4 4q9 17 55 27.5t107 10.5q60 0 107 -11t57 -27l2 -4q76 -179 138 -398q1 -2 2 -7t2 -7l28 6l-6 16q-46 160 -86 262q48 138 80 216q4 4 4 6q12 14 56.5 24t99.5 10q57 0 102 -10.5t54 -25.5l4 -4q69 -169 112 -312 l8 -8q5 -4 13 -11.5t30 -32.5t40.5 -53.5t37.5 -73.5t27 -93q5 -27 5 -55q0 -11 -1 -23q-1 -15 -1 -33q0 -32 3 -75q5 -68 22 -126q14 -45 18 -54l-68 -26l-42 -14l-54 -22q-16 31 -30 72q-10 37 -10 102q0 26 2 56q1 29 1 56q0 75 -11 136q-11 57 -41.5 115.5t-52 86 t-36.5 42.5l-12 -2q36 -106 64 -242q19 -87 22.5 -208.5t7.5 -159.5q6 -73 34 -193t32 -171v-8q8 -67 72 -88q5 -3 34 -8q40 64 40 132q0 14 -2 28q0 2 -1 6t-1 6l40 18l128 60q11 -32 14 -80q-1 -57 -11.5 -98.5t-20.5 -54.5l-10 -13l-220 -60l2 4l-10 -4q-26 -8 -53 -8 q-32 0 -65 12q-87 -21 -194 -24q-20 -4 -44 0q-22 0 -34 2q2 22 2 92l156 38q16 3 26 22l-230 -46l-132 -28q0 -10 7.5 -17t18.5 -7l106 26q-8 -104 -8 -114q-3 -20 -22 -34q-41 -20 -94 -36q24 48 24 122h-8q-16 -83 -66 -136q-8 -10 -28 -30q-40 -26 -76 -32q29 34 40 48 q44 59 64 136l6 28q6 24 6 52q4 39 13.5 100t12.5 92q1 13 1 34q0 26 -2 61q-3 65 -17 153q-30 185 -32 356q-1 15 -1 29q0 147 25 185h-10q-21 -19 -39 -51t-25.5 -52t-21.5 -63q-17 -51 -22 -106q-1 -18 -1 -36q0 -38 7 -80q9 -60 19 -102.5t29 -109.5q12 -57 12 -107 q0 -29 -4 -55q0 -1 -46.5 9.5t-93.5 21.5l-46 11v21q0 63 -16 111q-38 80 -45 196q-2 27 -2 51q0 83 19 143q21 96 60 146q-57 -53 -82 -152q-12 -57 -15 -121q-1 -14 -1 -29q0 -51 8 -106q11 -72 36 -124q21 -58 21 -110q0 -10 -1 -20l-10 4q-52 -27 -85.5 -78.5 t-40.5 -89.5l-8 -38l12 -22l12 -6q0 -8 -8 -12q-60 -85 -60 -167q0 -45 18 -89q-78 18 -142 50q-20 12 -20 34q-7 63 -11 159t-4 248zM423 -169q0 6 5 11l54 54q39 -11 74 -16q14 -8 46 -20q70 -23 163 -23q83 0 185 19l10 -14q9 -6 7 -15.5t-11 -14.5q-95 -35 -234 -38 q-14 -2 -27 -2l-27 2q-139 3 -234 38q-11 6 -11 19zM488 19q0 89 64 179h2l178 -86q-46 -78 -46 -154v-14q0 -18 2 -26q1 -8 4 -19.5t4 -14.5q0 -6 4 -10v-4l-22 6q-10 4 -30 8q-61 15 -122 26h-8l-2 2l-14 24q-14 41 -14 83zM548 1472q0 -14 42.5 -24t101.5 -10t101.5 10 t42.5 24q0 15 -41.5 24.5t-102.5 9.5t-102.5 -9.5t-41.5 -24.5zM646 284q19 38 28 42q4 -1 17.5 -6t29 -10.5t27.5 -9.5l-14 -46l-86 30h-2zM942 964q0 -11 8 -18t18 -6l60 10q51 -246 51 -588q0 -52 -1 -106l46 8q-8 403 -70 692l192 36q19 4 26 22zM1038 1560 q0 -13 40.5 -22.5t97.5 -9.5t97.5 9.5t40.5 22.5t-40.5 22.5t-97.5 9.5t-97.5 -9.5t-40.5 -22.5zM1046 -74q16 8 44 24q31 17 28 48q0 6 2 8q20 0 64 -4q14 -2 60 -2q68 0 164 12l28 -28q7 -8 5 -17.5t-11 -12.5q-92 -33 -224 -36q-14 -2 -27 -2l-27 2q-63 0 -106 8z M1610 488l68 26q16 -24 16 -40q-6 -3 -21.5 -9t-28 -10.5t-20.5 -8.5l-8 16z" />
<glyph unicode="K" d="M126 -198v1798h1798v-1798h-1798zM446 688q0 -20 13 -33t37 -13q25 0 39.5 15t14.5 41q0 19 -12.5 31.5t-35.5 12.5q-26 0 -41 -15t-15 -39zM526 306q0 -18 20 -18h268q8 0 14 5.5t6 12.5q0 20 -20 20q-94 0 -94 48q0 20 14 40l58 138q8 17 20 27.5t30 14.5t29 5t31 1 h252q12 0 12 -10l66 -176q10 -22 10 -46q0 -42 -64 -42q-18 0 -18 -20q0 -18 18 -18h302q16 0 16 18q0 20 -14 20q-49 3 -77.5 23t-44.5 65l-278 722q-6 30 -32 30q-22 0 -42.5 -16.5t-31.5 -39.5l-320 -696q-18 -46 -41.5 -67t-68.5 -21q-9 0 -14.5 -6t-5.5 -14zM840 658v6 l124 272q31 59 38 98q0 6 4 6q2 0 2 -6q6 -51 52 -152l70 -194q4 -6 4 -20t-26 -14h-258q-10 0 -10 4zM1480 688q0 -46 44 -46q27 0 41.5 15t14.5 41q0 19 -12 31.5t-36 12.5q-52 0 -52 -54z" />
<glyph unicode="P" d="M34 606q0 200 79 384t212 317.5t317 213t386 79.5q201 0 384 -79.5t315.5 -213t210.5 -317t78 -384.5q0 -162 -50 -313.5t-141 -272.5t-212.5 -212t-272.5 -140.5t-312 -49.5q-202 0 -386 77.5t-317 209.5t-212 315.5t-79 385.5zM128 606q0 -182 70.5 -348.5t190.5 -288 t287 -193.5t352 -72q262 0 476 137t326 363q68 139 68 294q0 129 -48.5 245t-131.5 202t-193.5 144t-234.5 77q127 -51 224 -158.5t138 -241.5q36 -100 36 -207q0 -71 -16 -145q-40 -186 -166 -318q-122 -134 -303 -196q-125 -43 -252 -43q-57 0 -115 9q-187 26 -340 151 t-230 303q-77 159 -77 341q0 15 1 31q7 200 104 368q94 173 261.5 289t366.5 149q3 0 12.5 3.5t15.5 4.5q-172 -15 -324.5 -91.5t-261.5 -195.5t-172.5 -278.5t-63.5 -334.5zM282 645q1 -35 4 -71q24 -162 115 -302.5t225 -221.5q138 -80 298 -88q17 -1 33 -1q141 0 265 59 q-84 -24 -170 -24q-122 0 -234 48t-193 129t-129 194.5t-48 238.5q0 231 162 406v8l16 16q110 125 264 198.5t324 73.5q176 0 335.5 -80t264.5 -216q-30 50 -78 110q-116 140 -275.5 221t-332.5 87q-27 2 -54 2q-149 0 -289 -56q-165 -66 -281 -194q-120 -114 -176 -276 q-45 -128 -46 -261zM572 650q0 -22 2 -44q6 -127 92 -235.5t208 -144.5q52 -14 103 -14q69 0 141 26q124 44 186 142q59 90 59 193q1 17 -1 35q-12 122 -96 206q-80 85 -201 97q-19 2 -37 2q-98 0 -170 -55q-88 -63 -114 -178q-7 -28 -7 -58q0 -67 35 -140q61 -94 162 -118 q34 -8 66 -8q65 0 120 32q99 74 110 154q5 25 5 49q0 69 -45 129q-23 33 -64 56.5t-82 29.5q-84 0 -162 -62q-48 -48 -48 -117q0 -20 2 -37q7 -69 86 -132q28 -14 98 -14q-51 0 -89 29.5t-57 76.5v8q-15 30 -15 60q0 43 31 86q47 70 146 70q96 -15 138 -94q25 -34 28 -80 v-11q0 -40 -20 -77q-36 -90 -146 -116q-21 -6 -43 -6l-143 62q-36 36 -56 85q-15 38 -15 76q0 11 1 23q0 71 46.5 130.5t120.5 85.5q39 14 80 14h5q32 0 64 -8q76 -18 131 -78q55 -58 71 -136q6 -31 6 -64q0 -48 -14 -98q-26 -76 -95 -130.5t-153 -68.5q-27 -5 -54 -5 q-57 0 -114 20q-117 41 -186 176q-28 57 -34 128q-2 18 -2 35q0 52 14 99q42 134 172 212q94 56 191 56q37 0 75 -8q144 -15 247 -134.5t109 -271.5q0 -77 -24 -153.5t-68 -132.5q-98 -132 -248 -176q-67 -19 -142 -19q-57 0 -120 11q107 -40 194 -40q143 0 263.5 71.5 t189.5 192.5t69 262q-10 119 -69.5 224.5t-152.5 173.5q-109 88 -256 100q-13 1 -27 1h-13q-123 0 -228 -61q-124 -59 -202 -186q-54 -93 -54 -208z" />
<glyph unicode="V" d="M155 1198q1 38 21 73q28 49 80 67l718 254q21 8 50 8t50 -8l718 -254q52 -18 80 -67q21 -35 21 -73q0 -15 -3 -30q-6 -30 -14.5 -65.5t-40 -144t-69 -209.5t-102.5 -244t-138.5 -267t-179.5 -258.5t-224 -237.5q-41 -38 -98 -38t-98 38q-118 103 -224 237.5t-179.5 258.5 t-138.5 267t-102.5 244t-69 209.5t-40 144t-14.5 65.5q-3 15 -3 30zM224 1199q0 -8 2 -17q3 -17 13.5 -62.5t39.5 -142.5t66.5 -203t99.5 -240.5t134 -258.5t174.5 -253.5t216.5 -229.5q23 -20 54 -20t54 20q114 101 216.5 230.5t175 253.5t134.5 258.5t99.5 240t66 202.5 t39 142t13.5 63q2 9 2 17q0 21 -11 39q-15 26 -43 36l-718 254q-14 4 -28 4l-28 -4l-718 -254q-28 -10 -43 -36q-11 -19 -11 -39zM306 1198l718 252l718 -252q-4 -18 -11 -50.5t-36 -131.5t-63.5 -197.5t-95.5 -234t-130.5 -256t-170 -248.5t-211.5 -226q-111 98 -211 224.5 t-170.5 251.5t-130 253t-96.5 237t-63 194.5t-37 134.5zM508 1112l96 -242h22q12 0 22 -8.5t14 -17.5l4 -8l254 -626h208l250 618l4 8q14 34 40 34h22l96 242h-284l-232 -586l-232 586h-284z" />
<glyph unicode="W" d="M24 606q0 203 79.5 388.5t213.5 319t319 213t388 79.5q163 0 315.5 -50.5t275.5 -143t215.5 -215.5t143 -275.5t50.5 -315.5t-50.5 -315.5t-143 -275.5t-215.5 -215.5t-275.5 -143t-315.5 -50.5q-203 0 -388 79.5t-319 213t-213.5 319t-79.5 388.5zM150 606 q0 -252 132 -461.5t352 -320.5l-412 1130q-72 -162 -72 -348zM304 1100h26q68 0 124.5 2.5t79.5 5.5l22 2q28 1 46 -16t19.5 -39.5t-13 -42.5t-42.5 -24t-70 -6l288 -858l194 578l-102 276l-88 10q-22 1 -36.5 14.5t-16.5 31.5t2.5 36t21 29.5t39.5 10.5q52 -10 194 -10 q69 0 125.5 2.5t78.5 5.5l22 2q28 1 46 -16t19.5 -39.5t-13 -42.5t-42.5 -24q-26 -4 -68 -6l286 -850l88 292q68 179 68 288q0 50 -14 102q-21 54 -38 82q-33 51 -45.5 72.5t-27.5 60.5t-15 73q0 62 41 108.5t103 47.5q-117 107 -267 165.5t-315 58.5q-220 0 -410.5 -103 t-309.5 -279zM778 -232q123 -38 246 -38q152 0 290 52q0 2 -2 2l-272 746zM1476 -144q194 118 309 317t115 433q0 208 -96 400q4 -44 4 -66q0 -149 -70 -316z" />
<glyph unicode="s" horiz-adv-x="1200" d="M604 186q154 133 278.5 378.5t179.5 497.5l-458 168v-24q18 -7 61 -22t65 -24l256 -90q4 -2 17 -7t23 -9t10 -6q0 -6 -4 -18l-428 154v-28q102 -35 178 -64q244 -85 244 -90q0 -4 -6 -16l-416 150v-30l292 -104h30q-1 -2 -2 -5t-2 -5l92 -34q-1 -2 -3 -8t-5 -8l-92 32 l-8 -26q20 -5 57 -18t37 -16l-6 -18l-94 34l-12 -24l98 -34q-3 -13 -8 -20l-96 36q-5 -9 -8 -26l98 -34q-2 -4 -4 -10.5t-4 -9.5l-120 42q-3 0 -9.5 -8t-6.5 -12l128 -46q-1 -2 -4 -9t-6 -9l-126 44q-5 -14 -10 -22l128 -48q-1 -2 -2.5 -6t-3 -6.5t-4.5 -3.5l-124 44 q-2 -4 -10 -24l128 -48l-10 -16l-126 44q-1 -4 -4 -12t-4 -12l124 -46q-1 -2 -4.5 -8t-5.5 -8l-122 44q-2 -4 -5 -12t-5 -12l122 -46l-8 -16l-122 44q-1 -3 -4 -11.5t-4 -14.5l118 -42l-10 -18l-118 42l-8 -24l114 -42q-8 -12 -10 -18l-112 40q-2 -3 -5 -12t-5 -12l106 -36 l2 -4q-8 -12 -12 -16l-104 38l-8 -26l100 -36q-8 -12 -12 -16l-96 34q-8 -16 -10 -24l92 -34q-4 -4 -12 -16l-84 32h-66v-6l134 -48q-8 -12 -14 -16l-120 44v-28l104 -40l-14 -14l-90 32v-28l72 -26q-4 -6 -14 -16l-58 22v-30q28 -8 38 -14l-14 -16q-4 2 -12 5t-12 5v-64z M604 616q10 15 10 24q0 2 -10 2v-26zM604 664l18 -6q1 2 4 10.5t4 15.5l-26 8v-28zM604 714l36 -12q1 4 4 12t4 12l-44 16v-28zM604 764l52 -20q4 10 8 26l-60 20v-26zM604 812l66 -24q9 12 12 24l-78 28v-28zM604 862l86 -32q1 4 2.5 8t3 9t2.5 7l-94 34v-26zM604 910 l102 -36q1 3 4 10.5t4 13.5l-110 40v-28zM604 960l120 -42q1 2 2.5 7t3 9t2.5 8l-128 46v-28zM604 1008l136 -48q3 6 8 26l-144 50v-28zM604 1058l156 -56h74l-230 84v-28z" />
<glyph unicode="v" horiz-adv-x="1372" d="M155 1059q0 21 10 39q13 24 39 36l460 164q12 4 25 4l25 -4l460 -164q26 -12 39 -36q10 -19 10 -39q0 -6 -1 -13q0 -1 -1 -6q-8 -36 -18 -72.5t-36 -123.5t-63.5 -172t-88 -183.5t-123 -193.5t-154.5 -169q-20 -20 -50 -20q-28 0 -48 20q-102 91 -189 219t-138 238 t-89.5 223.5t-51 165.5t-16.5 74q-1 7 -1 13zM199 1049q0 -5 1 -9q2 -13 8.5 -39.5t24.5 -89t40.5 -128t61 -151t83 -163.5t107.5 -160t133 -145q14 -10 31 -10t29 10q97 87 179.5 209t130 225.5t84.5 214t48.5 156.5t15.5 71q1 6 1 13q0 9 -5 19q-8 16 -24 22l-444 160 q-3 0 -8 1t-8 1l-14 -2l-444 -160q-16 -6 -24 -22q-6 -11 -7 -23zM368 1000h168l152 -390l154 390h168q-6 -15 -16 -43.5t-19 -51.5t-19 -43q-2 -4 -6.5 -6t-10.5 -3.5t-9 -2.5q-5 -3 -8.5 -6.5t-6 -9t-4 -8.5t-4 -10.5t-3.5 -9.5l-24 -60q-108 -273 -128 -324h-126l-54 132 q-8 24 -28 72q-8 24 -28 72l-30 74q-4 9 -9 24t-10.5 27t-14.5 23q-4 4 -9 5.5t-11 1.5t-8 1q-25 61 -56 146z" />
<glyph unicode="&#x2000;" horiz-adv-x="803" />
<glyph unicode="&#x2001;" horiz-adv-x="1606" />
<glyph unicode="&#x2002;" horiz-adv-x="803" />
<glyph unicode="&#x2003;" horiz-adv-x="1606" />
<glyph unicode="&#x2004;" horiz-adv-x="535" />
<glyph unicode="&#x2005;" horiz-adv-x="401" />
<glyph unicode="&#x2006;" horiz-adv-x="267" />
<glyph unicode="&#x2007;" horiz-adv-x="267" />
<glyph unicode="&#x2008;" horiz-adv-x="200" />
<glyph unicode="&#x2009;" horiz-adv-x="321" />
<glyph unicode="&#x200a;" horiz-adv-x="89" />
<glyph unicode="&#x202f;" horiz-adv-x="321" />
<glyph unicode="&#x205f;" horiz-adv-x="401" />
<glyph unicode="&#xe000;" horiz-adv-x="500" d="M0 0z" />
</font>
</defs>
</svg>
